Kunoichi Botan / Женщина-ниндзя Ботан (SELFISH) (ep. 1 of ?) [cen] [2018, big breast, ninja, monster, rape, virgin, oral, anal, group, creampie, WEB-DL] [jap / eng (1)] [720p] (1.49 GB)

Filelist

../Kunoichi_Botan_(2018)


  • screenlists

    • Kunoichi_Botan_01_[4D05BDF6].mp4_thumbs.jpg 310389

    • Kunoichi_Botan_#1_Poster.jpg 184699



  • Kunoichi_Botan_01_[4D05BDF6].mp4 1639786381

Description


Kunoichi Botan
くの一牡丹 その一
Женщина-ниндзя БотанГод выпуска: 2018
Жанр: big breast, ninja, monster, rape, virgin, oral, anal, group, creampie
Серии: ep. 1 of ?
Продолжительность: 14mn
Цензура: Есть во всех файлахОзвучка: Японская оригинальнаяСтудия: SELFISHОписание: One night in a merchant's mansion, a kunoichi (female ninja) named Yasuzu is violated by a group of men under the effect of "Aura of Ogre", called "Demi-Ogre". Although she had kept her virginity, the Demi-Ogres keeps sexually tormenting Yasuzu. Now the only thing Yasuzu can think about is her senior kunoichi Botan who she has longed for. At that time, Botan is sneaking into the merchant's mansion. Together with two of "herselves" which she created by her signature art of ninja "Kagebunshin", she beats watchmen down. There comes, however, the merchant carrying Yasuzu who has totally been screwed up. Botan and two of herselves get caught by Demi-Ogres in an off-guard moment...Гуглоперевод! One evening at the merchant's house, Kunei no Yoru (Yasuzu) is being fucked by men of "semi-demon" stained at "demon's mind".Half demon who forgets the night bell that was still a virgin.To come to the head of the night bell, it was the existence of a long-awaited senior Kunichi, a peony.At that time, Peony also invaded the merchant's mansion.I will take out two alter ego with ninjutsu "shadow alter ego" which I'm good at, and I will beat defeat soldiers one after another.But there, the merchant will appear with a dreadful night bell.Peony which is hit by the gap and is caught by the semi demon and its alter ego...http://www.dlsite.com/ecchi-eng/work/=/product_id/RE233176.htmlДоп. информация: Я всё ещё хочу третью серию курорта...Качество видео: WEB-DL
Разрешение видео: 720p
Формат видео: MP4
Видео: 1280-720, 16-9, 23.976 fps, AVC, 15.4 mbps
Аудио: jpn, AAC, Stereo, 48.0 KHz, 320 kbps

Скринлист

MediaInfo
General
Complete name : Kunoichi_Botan_01_[4D05BDF6].mp4
Format : MPEG-4
Format profile : Base Media
Codec ID : isom (isom/iso2/avc1/mp41)
File size : 1.53 GiB
Duration : 13 min 54 s
Overall bit rate : 15.7 Mb/s
Writing application : Lavf55.34.100Video
ID : 1
Format : AVC
Format/Info : Advanced Video Codec
Format profile : [email protected]
Format settings : CABAC / 4 Ref Frames
Format settings, CABAC : Yes
Format settings, RefFrames : 4 frames
Codec ID : avc1
Codec ID/Info : Advanced Video Coding
Duration : 13 min 54 s
Bit rate : 15.4 Mb/s
Width : 1 280 pixels
Height : 720 pixels
Display aspect ratio : 16:9
Frame rate mode : Constant
Frame rate : 23.976 (23976/1000) FPS
Color space : YUV
Chroma subsampling : 4:2:0
Bit depth : 8 bits
Scan type : Progressive
Bits/(Pixel*Frame) : 0.698
Stream size : 1.50 GiB (98%)
Writing library : x264 core 142 r2389 956c8d8
Encoding settings : cabac=1 / ref=3 / deblock=1:0:0 / analyse=0x3:0x113 / me=hex / subme=7 / psy=1 / psy_rd=1.00:0.00 / mixed_ref=1 / me_range=16 / chroma_me=1 / trellis=1 / 8x8dct=1 / cqm=0 / deadzone=21,11 / fast_pskip=1 / chroma_qp_offset=-2 / threads=12 / lookahead_threads=2 / sliced_threads=0 / nr=0 / decimate=1 / interlaced=0 / bluray_compat=0 / constrained_intra=0 / bframes=3 / b_pyramid=2 / b_adapt=1 / b_bias=0 / direct=1 / weightb=1 / open_gop=0 / weightp=2 / keyint=250 / keyint_min=23 / scenecut=40 / intra_refresh=0 / rc_lookahead=40 / rc=abr / mbtree=1 / bitrate=15424 / ratetol=1.0 / qcomp=0.60 / qpmin=0 / qpmax=69 / qpstep=4 / ip_ratio=1.40 / aq=1:1.00
Language : EnglishAudio
ID : 2
Format : AAC
Format/Info : Advanced Audio Codec
Format profile : LC
Codec ID : mp4a-40-2
Duration : 13 min 54 s
Duration_LastFrame : -11 ms
Bit rate mode : Constant
Bit rate : 320 kb/s
Channel(s) : 2 channels
Channel positions : Front: L R
Sampling rate : 48.0 kHz
Frame rate : 46.875 FPS (1024 SPF)
Compression mode : Lossy
Stream size : 31.8 MiB (2%)
Language : English
Default : Yes
Alternate group : 1
















Стимулятор анальный Аналос черный




949 р










Анальная черная торпеда АТ-10




1699 р










Роскошный белый удлиненный кинчер ROMANCE DREAM




6199 р


















Анальная втулка Бути




999 р










Фаллоимитатро реалистик Classic 10 черный




1399 р










Пеньюар + стринги




2399 р










Вибромассажер Siime Eye Camera Svakom




19190 р






var goout = function (url) {
var h = "https://vsexshop.ru/store/p_partner_sale/";
var plab_url = encodeURIComponent(window.location.href.toString());
window.location.assign(h+url+"&back_url="+plab_url);
// window.open(h + url);
}
//Lasciate ogni speranza, voi ch’entrate
$('a.writenow').click(function () {
goout($(this).data("tt"))
});
//if($('#dd-900x90').length){
//$($(".bordered").after($("#dd-900x90"))[1]).insertBefore( $("#dd-900x90") )
//};


.gvv-0 {
overflow: hidden;
margin: 12px auto;
height: 210px;
text-align: center;
}

div.nick {
color: #f139c3;
font-weight: bold;
font-style: italic;
}

table.writenow {
width: 99%;
}

a.writenow {
text-align: center;
text-decoration: none;
display: inline-block;
cursor:pointer;}

$(function(){ $('div.thx-list b').after(' '); });

13859628ASSIL0033 (28-Авг-18)9501226alfec575 (27-Авг-18)18090028mukux28 (27-Авг-18)8556454trier (27-Авг-18)627464ALOUD (27-Авг-18)7803996BarnettDL79 (27-Авг-18)18318959zfvg15 (27-Авг-18)14079830de_Silva (27-Авг-18)