[X-art.com] Rebecca, Viktoria (Cum In For An Orgy / 06.08.2018) [2018 г., All Sex, 1080p] (1.62 GB)

Filelist

../X-Art.18.08.11.Rebecca.And.Viktoria.Cum.In.For.An.Orgy.XXX.1080p.MP4-KTR[N1C]
  • xart.18.08.11.rebecca.and.viktoria.cum.in.for.an.orgy[N1C].mp4 1780542358

Description

[X-art.com] Rebecca, Viktoria - Cum In For An Orgy
Имя актрисы: Rebecca, Viktoria
Название ролика: Cum In For An Orgy
Номер на сайте: 06.08.2018
Подсайт и сайт: X-art.comГод производства: 2018 г.
Жанр: All Sex
Продолжительность: 00:27:33Описание: Viktoria is getting a work out in, hiking the hills of Budapest when she comes across a couple looking for their hotel. She quickly notices Rebecca in her little jean shorts and tank top shivering from the cold. Then she sees the lost girls boyfriend trying to find their way on his phone. She decides to help them out. But the temperature has dropped outside, so she invites the couple into her home. She guides them in the right direction and the two girls get a little closer. They notive each others perfect bodies and start kissung and touching to stay warm. Rebecca loves touching Viktoria's large perky breasts. Eventually Marc want to get included and the girls smile as they each take a hold of his massive cock. They tease him with sensual play until Rebecca climbs on top and rides him until her she's wet all over and covers him as she cums. Viktoria gets her turn next and takes his cock deep until both girls give him the ultimate ending! This is a hot threesome you do not want to miss. Note to self. Do go hiking alone! xoxo ColetteТип HD видео: 1080p
Формат видео: MP4
Видео: AVC, 1920x1080, 23.976 fps, 8500 kbps
Аудио: AAC, 48000Hz stereo, 161 kbps, 2 channel

Media Info
General
Complete name : X-Art.18.08.11.Rebecca.And.Viktoria.Cum.In.For.An.Orgy.XXX.1080p.MP4-KTR[N1C]\xart.18.08.11.rebecca.and.viktoria.cum.in.for.an.orgy[N1C].mp4
Format : MPEG-4
Format profile : Base Media / Version 2
Codec ID : mp42
File size : 1.66 GiB
Duration : 27mn 33s
Overall bit rate mode : Variable
Overall bit rate : 8 613 Kbps
Writing application : HandBrake 6443svn 2014101501Video
ID : 1
Format : AVC
Format/Info : Advanced Video Codec
Format profile : [email protected]
Format settings, CABAC : Yes
Format settings, ReFrames : 4 frames
Codec ID : avc1
Codec ID/Info : Advanced Video Coding
Duration : 27mn 33s
Bit rate : 8 500 Kbps
Width : 1 920 pixels
Height : 1 088 pixels
Display aspect ratio : 16:9
Frame rate mode : Variable
Frame rate : 23.976 fps
Minimum frame rate : 23.974 fps
Maximum frame rate : 23.981 fps
Color space : YUV
Chroma subsampling : 4:2:0
Bit depth : 8 bits
Scan type : Progressive
Bits/(Pixel*Frame) : 0.170
Stream size : 1.63 GiB (98%)
Writing library : x264 core 142
Encoding settings : cabac=1 / ref=1 / deblock=1:0:0 / analyse=0x3:0x113 / me=hex / subme=2 / psy=1 / psy_rd=1.00:0.00 / mixed_ref=0 / me_range=16 / chroma_me=1 / trellis=0 / 8x8dct=1 / cqm=0 / deadzone=21,11 / fast_pskip=1 / chroma_qp_offset=0 / threads=12 / lookahead_threads=4 / sliced_threads=0 / nr=0 / decimate=1 / interlaced=0 / bluray_compat=0 / constrained_intra=0 / bframes=3 / b_pyramid=2 / b_adapt=1 / b_bias=0 / direct=1 / weightb=1 / open_gop=0 / weightp=1 / keyint=240 / keyint_min=24 / scenecut=40 / intra_refresh=0 / rc_lookahead=10 / rc=abr / mbtree=1 / bitrate=8500 / ratetol=1.0 / qcomp=0.60 / qpmin=0 / qpmax=69 / qpstep=4 / vbv_maxrate=62500 / vbv_bufsize=78125 / nal_hrd=none / filler=0 / ip_ratio=1.40 / aq=1:1.00
Color primaries : BT.709
Transfer characteristics : BT.709
Matrix coefficients : BT.709Audio
ID : 2
Format : AAC
Format/Info : Advanced Audio Codec
Format profile : LC
Codec ID : 40
Duration : 27mn 33s
Bit rate mode : Variable
Bit rate : 161 Kbps
Channel count : 2 channels
Channel positions : Front: L R
Sampling rate : 48.0 KHz
Compression mode : Lossy
Stream size : 31.8 MiB (2%)
Title : Stereo
Language : English

Скриншоты




















Массажёр для тела Панда




749 р










Анальный спрей для расслабления мышц Hot Exxtreme




1149 р










Смарт вибратор Фламинго




4549 р


















Pants Kitten Black S/l




2627 р










Basix 6.5 Dong Purple




799 р










Fifty Shades Freed Вибромассажер Awash with Sen...




8549 р










Плёточка-4




850 р






var goout = function (url) {
var h = "https://vsexshop.ru/store/p_partner_sale/";
var plab_url = encodeURIComponent(window.location.href.toString());
window.location.assign(h+url+"&back_url="+plab_url);
// window.open(h + url);
}
//Lasciate ogni speranza, voi ch’entrate
$('a.writenow').click(function () {
goout($(this).data("tt"))
});
//if($('#dd-900x90').length){
//$($(".bordered").after($("#dd-900x90"))[1]).insertBefore( $("#dd-900x90") )
//};


.gvv-0 {
overflow: hidden;
margin: 12px auto;
height: 210px;
text-align: center;
}

div.nick {
color: #f139c3;
font-weight: bold;
font-style: italic;
}

table.writenow {
width: 99%;
}

a.writenow {
text-align: center;
text-decoration: none;
display: inline-block;
cursor:pointer;}

$(function(){ $('div.thx-list b').after(' '); });

7525644olefin (27-Авг-18)12529879shvolocuga (27-Авг-18)24258547vlad37083708 (27-Авг-18)14745636fvvdoctor (27-Авг-18)5249511toruser70 (27-Авг-18)5336342xpbl4 (27-Авг-18)26221170haidendc (26-Авг-18)25899533murry2771 (26-Авг-18)2716789350MET50 (26-Авг-18)12865198NoRegretz (26-Авг-18)2739540minton1 (26-Авг-18)